#TITLE:Deja Vu;
#SUBTITLE:;
#ARTIST:SOM2;
#TITLETRANSLIT:;
#SUBTITLETRANSLIT:;
#ARTISTTRANSLIT:;
#CREDIT:;
#BANNER:Deja Vu - Som2 Banner.jpg;
#BACKGROUND:Deja Vu - Som2.jpg;
#LYRICSPATH:;
#CDTITLE:CD.png;
#MUSIC:Deja Vu - Som2.mp3;
#OFFSET:-0.140;
#SAMPLESTART:66.100;
#SAMPLELENGTH:20.000;
#SELECTABLE:YES;
#DISPLAYBPM:115.000;
#BPMS:0.000=57.500,7.500=230.000,9.500=115.000,11.750=57.500,13.000=115.000,13.250=460.000,14.250=115.000,19.750=230.000,21.750=115.000,27.500=57.500,28.500=230.000,30.000=115.000,30.250=57.500,31.250=230.000,32.750=115.000,33.000=57.500,34.000=115.000,34.250=230.000,35.250=115.000,35.500=230.000,36.500=115.000,36.750=230.000,37.750=460.000,38.750=115.000,71.000=57.500,73.000=115.000,101.000=460.000,102.000=230.000,103.000=115.000,103.750=57.500,104.000=28.760,111.000=57.500,113.000=115.000,177.000=230.000,178.000=115.000,178.250=230.000,180.500=115.000;
#STOPS:9.750=0.522
,10.250=2.609
,10.500=0.391
,11.000=0.522
,11.500=1.043
,14.250=0.391
,14.500=1.174
,14.750=0.261
,15.000=0.261
,15.250=1.174
,15.500=0.261
,15.750=0.261
,16.000=1.174
,16.250=0.261
,16.500=0.261
,16.750=1.174
,17.000=0.261
,17.250=0.261
,17.500=1.174
,17.750=0.261
,18.000=0.261
,18.250=1.174
,18.500=0.261
,18.750=0.261
,19.000=1.174
,19.250=0.261
,19.500=0.261
,19.750=0.130
,20.250=0.130
,20.750=0.130
,21.250=0.130
,21.750=0.913
,22.000=1.174
,22.250=0.261
,22.500=0.261
,22.750=1.174
,23.000=0.261
,23.250=0.261
,23.500=1.174
,23.750=0.261
,24.000=0.261
,24.250=1.174
,24.500=0.261
,24.750=0.261
,25.000=1.174
,25.250=0.261
,25.500=0.261
,25.750=1.174
,26.000=0.261
,26.250=0.261
,26.500=1.174
,26.750=0.261
,27.000=0.261
,27.250=0.913
,28.500=1.174
,29.000=0.261
,29.500=0.261
,30.000=0.913
,31.250=1.174
,31.750=0.261
,32.250=0.261
,32.750=0.913
,34.000=1.174
,34.250=0.261
,34.750=0.261
,35.250=1.174
,35.500=0.261
,36.000=0.261
,36.500=1.174
,36.750=0.261
,37.250=0.261
,37.750=0.913
,38.750=0.913
,101.000=0.130
,102.000=0.130
,102.500=0.130
,103.000=0.130
,103.250=0.130
,103.500=0.130
,103.750=0.130
,103.875=0.130
,177.000=0.261
,177.500=0.261
,178.000=0.522
,180.250=0.065
;
#BGCHANGES:;
// cache tags:
#FIRSTBEAT:2.000;
#LASTBEAT:180.500;
#SONGFILENAME:Songs/Music V.I.P ^_^/Deja Vu - Som2/Deja Vu - Som2.sm;
#HASMUSIC:1;
#HASBANNER:1;
#MUSICLENGTH:156.063;
// end cache tags

//---------------dance-single - ----------------
#NOTES:
     dance-single:
     :
     Hard:
     11:
     0.773,1.000,1.000,0.045,0.772,494.000,243.000,7.000,0.000,87.000:
0000
0000
0000
0000
0000
0000
0000
0000
0000
0000
0000
0000
0000
0000
0000
0000
1000
0001
0000
0000
0000
0000
0001
1000
0000
0000
0000
0000
0000
0000
0000
0000
,
0100
0000
0001
1000
0000
0001
0000
0010
1000
0000
0010
0000
0100
0001
0000
0000
0010
0100
0000
0000
0000
0000
0100
0010
0000
0000
0000
0000
0000
0000
0000
0000
,
0000
0000
0000
0000
0000
0000
1111
1001
1001
1001
1111
1111
0110
0110
0110
2002
,
0000
0000
0000
0000
0000
0000
3003
0000
0000
1111
0101
1001
0110
1100
0101
0011
,
1010
1100
0101
0011
1010
1100
0101
0011
1100
1010
0110
0101
1100
0011
1001
1111
,
0000
0000
0000
0000
0000
0000
0000
0000
1110
0111
1101
1011
0111
1011
1110
1101
,
1011
0111
1110
1101
0111
1110
1011
1101
1110
0111
1011
1101
1110
1111
1000
0000
,
0010
0000
1110
0000
0101
0000
0111
0000
1110
0010
0000
0100
0000
0111
0000
1100
,
0000
0111
0000
1101
1000
0000
0001
0000
1110
0011
0000
0111
0000
1110
1011
0000
,
0110
0000
1101
1011
0000
1110
0000
1111
0000
0000
0000
0000
0110
0000
0000
1001
,
0000
0000
0011
0000
0000
1100
0000
0000
0101
0000
1100
0000
1010
0000
0000
1001
,
0000
0000
0011
0000
0000
1100
0000
0000
0110
0000
0011
0000
1010
0000
0000
0101
,
0000
0000
1010
0000
0000
1100
0000
0000
0011
0000
1100
0000
0011
0000
0000
1010
,
0000
0000
0110
0000
0000
0101
0000
0000
0011
0000
1010
0000
1111
0000
0000
1101
,
0000
0000
1110
0000
0000
0111
0000
0000
1011
0000
1101
0000
1011
0000
0000
1110
,
0000
0000
0111
0000
0000
1011
0000
0000
1110
0000
1101
0000
1110
0000
0000
0111
,
0000
0000
1011
0000
0000
1110
0000
0000
1011
0000
1101
0000
0111
0000
0000
1110
,
0000
0000
1011
0000
1101
0000
0000
0111
0000
0000
1110
0000
0112
0000
0000
0000
,
0000
1010
1010
0000
1003
0000
0010
0000
0100
0000
0001
0000
0010
0100
1000
0001
,
0010
0100
1000
0001
0010
0000
1000
0000
0010
0000
0100
0010
0001
1000
0100
0010
,
1000
0000
0100
0000
1000
0100
1000
0100
0001
0000
0010
0000
0001
0010
0001
0010
,
1000
0000
0001
1000
0100
0010
0100
0010
0100
0000
0001
0000
1000
0001
1000
0001
,
1000
0100
0010
0001
1110
0000
1000
0000
0100
0000
1000
0001
0010
0100
0001
1000
,
0110
0000
0001
0000
0100
0000
0010
1000
0001
0000
0010
0100
0001
1000
0010
0100
,
1001
0000
1000
0000
0001
0000
0010
0000
0100
0000
1000
0100
0001
0010
0100
1000
,
0010
0000
0000
0000
1000
0000
0000
0000
0011
0000
0000
0000
0000
0000
0000
0000
0110
0000
0000
0000
1100
0000
0000
0000
0110
0000
0011
0000
0110
0000
1100
0110
,
1011
0000
0100
0000
0010
0000
1000
0000
0001
0100
0010
0000
1100
0000
1000
0000
0111
0000
0100
0000
0010
0000
0001
0000
1000
0100
0010
0000
0110
0000
1000
0000
1011
0000
0010
0000
0100
0000
1000
0000
0001
0010
0100
0000
0011
0000
1000
0000
0111
0000
0010
0000
0001
0000
1000
0000
0010
0001
0100
0000
1010
0000
0001
0000
,
1101
0000
0010
0000
1000
0000
0100
0000
0010
1000
0001
0000
0011
0000
0100
0000
1110
0000
0001
0000
0100
0000
0010
0000
1000
0010
0100
0000
0110
0000
0001
0000
1011
0000
0100
0000
1000
0000
0001
0000
0100
0001
0010
0000
1001
0000
0100
0000
0220
0000
0000
0000
0000
0000
0000
0000
0000
0000
0000
0000
0000
0000
0000
0000
,
0000
2002
0000
0000
,
0000
0000
3333
0000
1111
0000
0000
1001
0000
0000
0011
0000
0000
1100
0010
1000
,
0101
0010
1100
0001
1010
0000
0000
1001
0000
0000
0011
0000
0000
1100
0001
1000
,
0110
1000
0011
0100
1010
0000
0000
0101
0000
0000
0011
0000
0000
1100
0010
0100
,
0011
0100
1010
0100
1001
0000
0000
1100
0000
0000
0011
0000
0000
0110
1000
0100
,
0011
1000
0110
0001
1111
0000
0000
1010
0000
0000
0011
0000
0000
0101
0010
1000
,
0110
1000
0011
0100
1001
0000
0000
0110
0000
0000
0011
0000
0000
1001
0010
0100
,
1010
0100
0011
0100
1010
0000
0000
0101
0000
0000
0110
0000
0000
1100
0010
0100
,
0011
1000
0110
0001
1111
0000
0000
1001
0000
0000
1111
0000
0000
0000
0000
0000
,
1001
0000
0000
0000
1111
0010
0001
1100
0010
1000
0011
0100
1000
0110
0001
0100
,
1001
0010
1001
0100
1010
0001
0100
1010
0001
1000
0011
0100
1000
0110
0001
0100
,
1010
0100
0011
0100
1010
0100
1000
0011
0100
1000
0011
0100
0001
1100
0010
0001
,
0110
0001
1010
0100
1001
0100
0001
1010
0100
1000
0011
0100
0001
1100
0010
1000
,
0101
0010
1001
0010
1111
0100
0010
1001
0010
0001
0110
0001
0010
1100
0010
0100
,
0011
1000
0101
0010
0101
1000
0010
1100
0001
1000
0110
0001
0010
1001
0100
1000
,
0011
1000
0101
0010
1100
0010
1000
0101
0010
1000
0011
0100
0010
1100
0001
0010
,
1001
0010
0101
1000
0111
0000
1110
0000
1111
0000
0000
0000
0000
0000
0000
0000
,
0000
1111
0000
0000
0000
0000
0000
0000
;
